#TITLE:Sweet Magic;
#SUBTITLE:- Sasami Mahou Shoujo Club Opening;
#ARTIST:Magical Sweets;
#TITLETRANSLIT:;
#SUBTITLETRANSLIT:;
#ARTISTTRANSLIT:;
#CREDIT:Lisek;
#BANNER:bn.jpg;
#BACKGROUND:bg.jpg;
#LYRICSPATH:file.lrc;
#CDTITLE:cdtitle.gif;
#MUSIC:sweet magic.ogg;
#OFFSET:-0.485;
#SAMPLESTART:49.590;
#SAMPLELENGTH:11.940;
#SELECTABLE:YES;
#DISPLAYBPM:122.000;
#BPMS:0.000=122.000;
#STOPS:;
#BGCHANGES:-3.000=sasami.avi=1.000=0=0=1,
179.000=bg.jpg=1.000=1=0=1,
99999=-nosongbg-=1.000=0=0=0 // don't automatically add -songbackground-
;
// cache tags:
#FIRSTBEAT:0.000;
#LASTBEAT:179.000;
#SONGFILENAME:songs/Otaku's Dream 3rd Anime Mix/[Lisek] Sweet MAGIC - Sasami Mahou Shoujo Club OP/file.sm;
#HASMUSIC:1;
#HASBANNER:1;
#MUSICLENGTH:89.834;
// end cache tags

//---------------dance-single - ----------------
#NOTES:
     dance-single:
     :
     Hard:
     7:
     0.412,0.374,0.323,0.167,0.122,215.000,29.000,15.000,0.000,0.000:
1000
0000
0100
0000
1000
0010
0100
0000
,
0001
0000
0010
0000
0001
0100
0010
0000
,
1000
0000
0100
0000
1000
0010
0100
0000
,
0001
1000
0001
0000
1001
1001
1001
0000
,
1000
0000
0000
0100
0000
0000
1000
0000
0100
0000
0000
1000
0000
0000
1000
0000
,
0100
0000
1000
0000
0100
0000
1000
0000
0100
0000
0000
1000
0000
0000
0000
0000
,
0001
0000
0000
0010
0000
0000
0001
0000
0010
0000
0000
0001
0000
0000
0010
0000
,
0001
0000
0010
0000
0001
0000
0010
0000
0001
0000
0000
0010
0000
0000
0000
0000
,
0100
0000
0000
0100
0000
0000
0100
0000
1000
0000
0000
0100
0000
0000
1000
0000
,
0100
0000
1000
0000
0100
0000
1000
0000
0200
0000
0000
0300
0020
0000
0000
0030
,
0001
0000
0000
1000
0000
0000
0001
0000
1000
0000
0000
0001
0000
0000
1000
0000
,
0001
0000
1000
0000
0001
0000
1000
0000
0002
0000
0000
0003
2000
0000
0000
3000
,
0001
0000
0000
0010
0000
0000
0001
0000
0010
0000
0000
0001
0000
0000
0010
0000
,
0001
0000
0010
0000
0001
0000
0010
0000
0001
0000
0000
0010
0000
0000
0000
0000
,
0001
0000
0000
1000
0000
0000
0001
0000
1000
0000
0000
0001
0000
0000
1000
0000
,
0001
0000
1000
0000
0001
0000
1000
0000
0001
0000
0000
1000
0000
0000
0000
0000
,
1000
0000
0000
0010
0000
0000
1000
0000
0010
0000
0000
1000
0000
0000
0010
0000
,
1000
0000
0010
0000
1000
0000
0010
0000
1000
0000
0000
0001
0000
0000
0000
0000
,
0001
0000
0000
0010
0000
0000
0001
0000
0100
0000
0000
0001
0000
0000
0010
0000
,
0001
0000
0100
0000
0010
0000
1000
0000
0001
0000
0000
1000
0000
0000
0000
0000
,
2002
0000
0000
0000
3003
0001
0010
0001
,
0200
0000
0320
0000
,
2030
0000
0000
0000
3000
0001
0100
0010
,
2000
0000
0000
0000
0000
0000
3000
0100
,
0010
0000
0110
0110
0000
0000
0000
0000
,
0011
0000
0110
0000
1100
0000
0000
1000
,
0010
0100
0001
1000
0010
0000
1000
0000
,
1100
0000
0110
0000
0011
0000
0000
0001
,
1000
0100
0010
0001
0010
0000
0000
0000
,
0011
0000
0110
0000
1100
0000
0000
1000
,
0010
0100
0001
1000
0010
1000
0100
0000
,
1100
0000
0110
0000
0011
0000
0000
0001
,
1000
0100
1000
0001
1000
0000
0000
0000
,
0011
0000
0110
0000
1100
0000
0000
1000
,
0100
0010
0100
1000
0100
0000
1000
0000
,
1100
0000
0110
0000
0011
0000
0000
0001
,
1000
0010
0100
0001
1000
0000
0000
0000
,
0002
0000
2003
0000
,
3002
0000
0003
0110
,
2002
0000
0000
0000
,
0000
0000
3003
0000
,
0001
0000
1000
0000
0001
1000
0010
0000
,
1000
0000
0001
0000
0100
0010
1000
0000
,
0001
0000
0100
0000
0010
1000
0100
0000
,
0010
0000
0001
0000
1001
1001
1001
0000
;

//---------------dance-single - ----------------
#NOTES:
     dance-single:
     :
     Beginner:
     1:
     0.057,0.073,0.011,0.078,0.000,28.000,1.000,7.000,0.000,0.000:
0100
0000
0000
0000
,
0000
0000
0000
0000
,
0010
0000
0000
0000
,
0000
0000
0000
0000
,
1000
0000
0000
0000
,
0000
0000
0000
0000
,
0002
0000
0000
0000
,
0000
0000
0003
0000
,
1000
0000
0000
0000
,
0000
0000
0000
0000
,
0200
0000
0000
0000
,
0000
0000
0300
0000
,
1000
0000
0000
0000
,
0000
0000
0000
0000
,
0002
0000
0000
0000
,
0000
0000
0003
0000
,
1000
0000
0000
0000
,
0000
0000
0000
0000
,
0020
0000
0000
0000
,
0000
0000
0030
0000
,
1000
0000
0000
0000
,
0000
0000
0000
0000
,
0001
0000
0000
0000
,
0000
0000
0000
0000
,
1000
0000
0000
0000
,
0010
0000
0000
0000
,
1000
0000
0000
0000
,
0001
0000
0000
0000
,
0100
0000
0000
0000
,
0010
0000
0000
0000
,
0000
0000
0000
0000
,
0100
0000
0000
0000
,
0000
0000
0000
0000
,
0010
0000
0000
0000
,
0000
0000
0000
0000
,
1000
0000
0000
0000
,
1000
0000
0000
0000
,
0002
0000
0000
0000
,
0000
0000
0003
0000
,
2002
0000
0000
0000
,
0000
0000
3003
0000
,
1000
0000
0000
0000
,
0001
0000
0000
0000
,
1000
0000
0000
0000
,
0001
0000
0000
0000
;

//---------------dance-single - ----------------
#NOTES:
     dance-single:
     :
     Challenge:
     9:
     0.600,0.598,0.724,0.189,0.284,295.000,65.000,17.000,36.000,1.000:
1000
0000
0100
0000
1000
0000
0010
0000
0100
0000
0001
0010
0001
0000
0100
0000
,
0010
1000
0100
0000
0010
0000
0001
0000
0100
0000
0010
0000
1001
0000
0000
0000
,
0001
0000
0100
0000
0010
0000
1000
0000
0100
0000
1000
0100
1000
0000
0001
0000
,
0100
0010
0100
0001
0010
0000
0001
0000
1001
0000
1010
0000
1100
0000
0000
0000
,
1000
0000
1000
0000
0001
0000
0100
0000
0010
0000
0000
1001
0000
0000
1000
0000
,
0100
0000
1000
0000
0010
0000
0100
0000
1001
0000
0000
0011
0000
0000
0000
0000
,
0001
0000
0001
0000
1000
0000
0010
0000
0100
0000
0000
1001
0000
0000
1000
0100
,
1000
0000
0010
0000
0100
0000
0001
0000
0011
0000
0000
1001
0000
0000
0000
0000
,
1000
0000
0100
0000
0010
0000
0001
0000
1000
0000
0000
1001
0000
0000
0001
0100
,
0001
0000
1000
0000
0100
0000
1000
0000
0220
0000
0000
0330
0022
0000
0000
0033
,
1000
0000
0001
0000
0100
0000
0010
0000
1000
0000
0000
0110
0000
0000
1000
0001
,
0100
0000
0010
0000
1000
0000
0100
0000
0220
0000
0000
0330
0022
0000
0000
0033
,
0100
0000
0010
0000
1000
0000
0001
0000
0100
0000
0000
1001
0000
0000
1000
0100
,
1000
0000
0001
0000
0100
0000
0010
0000
1001
0000
0000
1100
0000
0000
0000
0000
,
0001
0000
0100
0000
0001
0000
0010
0000
0001
0000
0000
0101
0000
0000
0001
1000
,
0001
0000
0100
0000
0010
0000
1000
0000
1100
0000
0000
0101
0000
0000
0000
0000
,
1000
0000
0001
0000
0100
0000
0100
0000
0001
0000
0000
0101
0000
0000
1000
0000
,
0100
0000
1000
0000
0100
0000
0010
0000
0101
0000
0000
1001
0000
0000
0000
0000
,
1000
0000
0001
0000
0100
0000
0010
0000
1000
0000
0000
1100
0000
0000
0001
0100
,
0001
0000
1000
0000
0100
0000
1000
0000
0110
0000
0000
1001
0000
0000
0000
0000
,
2000
0000
0000
0100
0000
0000
0100
0000
3010
0000
0000
0000
0010
0000
0000
0000
,
0200
0000
0000
0010
0000
0000
0010
0000
0301
0000
0000
0000
0001
0000
0000
0000
,
0020
0000
0000
0100
0000
0000
0100
0000
0031
0000
0000
0000
0001
0000
0000
0000
,
0002
0000
0000
0010
0000
0000
0010
0000
0103
0000
0000
0000
0000
0000
1001
0000
,
0110
0000
0110
1001
0000
0000
0000
0000
,
11MM
0000
0000
0000
M11M
0000
0000
0000
M1M1
0000
0000
0000
0000
0000
0001
0100
,
0010
0000
1000
0000
0100
0000
0010
0000
0001
0000
0000
1000
0001
0000
0000
0000
,
1MM1
0000
0000
0000
M1M1
0000
0000
0000
MM11
0000
0000
0000
0000
0000
1000
0010
,
0100
0001
0100
0010
1000
1001
0011
0000
,
1MM1
0000
0000
0000
M1M1
0000
0000
0000
1MM1
0000
0000
0000
0000
0000
0001
0010
,
0001
0000
1000
0000
0010
0000
0100
0000
0001
0000
0000
1000
0001
0000
0000
0000
,
1MM1
0000
0000
0000
M1M1
0000
0000
0000
M11M
0000
0000
0000
0000
0000
0001
0100
,
0001
1000
0100
0010
0001
1001
1100
0000
,
M1M1
0000
0000
0000
M11M
0000
0000
0000
1M1M
0000
0000
0000
0000
0000
1000
0010
,
1000
0000
0100
0000
1000
0000
0010
0000
0100
0000
0000
0001
1000
0000
0000
0000
,
M1M1
0000
0000
0000
M11M
0000
0000
0000
11MM
0000
0000
0000
0000
0000
0100
0010
,
0100
1000
0100
1000
0010
1001
0110
0000
,
0002
0000
0020
0000
,
2000
0000
3033
1001
,
0220
0000
0000
0330
,
1000
0001
0100
0010
1000
0001
0100
0010
1000
0001
0100
0010
1000
0000
0000
0000
,
1001
0000
0010
0000
0001
0000
0100
0000
0010
0000
0100
0010
0100
0000
0001
0000
,
0010
0001
0010
0001
0010
0000
0001
0000
1001
0000
0110
0000
0011
0000
0000
0000
,
1000
0000
0010
0100
0001
0000
1000
0000
0100
0000
0010
0100
1000
0000
1000
0000
,
0001
0010
0100
1000
0100
0000
0010
0000
0110
0000
1001
0000
0110
0000
0000
0000
;

//---------------dance-single - ----------------
#NOTES:
     dance-single:
     :
     Easy:
     3:
     0.208,0.224,0.011,0.089,0.000,122.000,1.000,8.000,0.000,0.000:
1000
0000
0001
0000
,
1000
0000
0010
0000
,
0100
0000
0001
0000
,
0010
0010
0010
0000
,
0001
0100
0001
0000
,
1000
0100
1000
0000
,
0001
0100
0001
0000
,
1000
0100
1000
0000
,
1000
0010
0100
0000
,
0100
0010
1000
0000
,
1000
0010
0100
0000
,
0100
0010
1000
0000
,
0001
0100
0010
0000
,
0010
0100
0001
0000
,
0001
0100
0010
0000
,
0010
0100
0001
0000
,
1000
0001
0100
0000
,
0100
0001
1000
0000
,
1000
0001
0100
0000
,
0100
0001
1000
0000
,
0002
0000
1003
0000
,
2000
0000
3001
0000
,
0002
0000
1003
0000
,
2000
0000
3001
0000
,
1000
0000
0000
0001
0000
0000
0000
0000
,
1000
1000
1000
0000
,
0010
0100
0001
0000
,
0001
0001
0001
0000
,
0010
0100
1000
0000
,
1000
1000
1000
0000
,
0010
0100
0001
0000
,
0001
0001
0001
0000
,
0010
0100
1000
0000
,
1000
1000
1000
0000
,
0010
0100
0001
0000
,
0001
0001
0001
0000
,
0010
0100
1000
0000
,
2000
0000
3002
0000
,
2003
0000
3000
0010
,
0200
0000
0000
0000
,
0000
0000
0000
0300
,
0001
1000
0100
0010
,
0001
0010
0100
1000
,
0100
1000
0001
0100
,
0010
0000
0000
1001
;

//---------------dance-single - ----------------
#NOTES:
     dance-single:
     :
     Medium:
     5:
     0.356,0.324,0.189,0.345,0.095,176.000,17.000,31.000,0.000,0.000:
1000
0010
1000
0100
,
0010
0001
0100
0010
,
1000
0100
1000
0010
,
0100
0000
0001
0000
2002
3003
1001
0000
,
1000
0000
0000
0000
0010
0000
0000
0000
0100
0000
0000
0001
0000
0000
0000
0000
,
1000
0000
0000
0000
0001
0000
1000
0000
0001
0000
0000
1001
0000
0000
0000
0000
,
1000
0000
0000
0000
0100
0000
0000
0000
1000
0000
0000
0010
0000
0000
0000
0000
,
0100
0000
0000
0000
0001
0000
0010
0000
0001
0000
0000
1001
0000
0000
0000
0000
,
0001
0000
0000
0000
0010
0000
0000
0000
0100
0000
0000
1000
0000
0000
0000
0000
,
0100
0000
1000
0100
1000
0000
1001
0000
,
1000
0100
0010
0001
,
0010
0000
0001
0010
0001
0000
1001
0000
,
0100
0000
0000
0000
0010
0000
0000
0000
1000
0000
0000
0001
0000
0000
0000
0000
,
0100
0000
0000
0000
0010
0000
0100
0000
0010
0000
0000
1001
0000
0000
0000
0000
,
0001
0000
0000
0000
1000
0000
0000
0000
0010
0000
0000
0100
0000
0000
0000
0000
,
0001
0000
0000
0000
1000
0000
0001
0000
1000
0000
0000
1001
0000
0000
0000
0000
,
0001
0000
0000
0000
1000
0000
0000
0000
0010
0000
0000
1000
0000
0000
0000
0000
,
0001
0000
0000
0000
1000
0000
0001
0000
1000
0000
0000
1001
0000
0000
0000
0000
,
0010
0000
0000
0000
0100
0000
0000
0000
0001
0000
0000
1000
0000
0000
0000
0000
,
0010
0000
0000
0000
0100
0000
0001
0000
0100
0000
0000
1001
0000
0000
0000
0000
,
2000
0000
0000
0001
0000
0000
3001
0000
0000
0000
0000
0000
0000
0000
0000
0000
,
0002
0000
0000
1000
0000
0000
1003
0000
0000
0000
0000
0000
0000
0000
0000
0000
,
2000
0000
0000
0001
0000
0000
3001
0000
0000
0000
0000
0000
0000
0000
0000
0000
,
0002
0000
0000
1000
0000
0000
1003
0000
0000
0000
0000
0000
0000
0000
0000
0000
,
1001
0000
0110
0110
0000
0000
0000
0000
,
2000
3002
2003
3000
,
0010
0000
0100
0000
0001
1000
0001
0000
,
0002
2003
3002
0003
,
0010
0000
0100
0000
1000
0001
1000
0000
,
0002
0023
0230
0300
,
1000
0000
0001
0000
1000
0001
1000
0000
,
0002
0203
0320
0030
,
1000
0000
0100
0000
1000
0001
1000
0000
,
0002
0000
0000
0003
0002
0000
0000
0003
0002
0000
0000
0003
0000
0000
0000
0000
,
1000
0000
0001
0000
0100
0010
0100
0000
,
0020
0000
0000
0030
0020
0000
0000
0030
0020
0000
0000
0030
0000
0000
0000
0000
,
1000
0000
0001
0000
1000
0001
1000
0000
,
0020
0000
0230
0000
,
0302
0000
0003
1001
,
2002
0000
0000
0000
,
0000
0000
0000
3003
,
1000
0000
0001
0000
1000
0010
1000
0000
,
0001
0000
0100
0000
0001
0100
0001
0000
,
1000
0000
0001
0000
1000
0001
1000
0000
,
0001
1000
0001
0000
2002
3003
1001
0000
;
